| |

UC FORUM

 Forgot password?
 register
View: 72|Reply: 0

[Suggestion] Problem With Rescue Hunter,

[Copy link]
Post time: 5-1-18 15:25:33
| Show all posts |Read mode
First i would Like to say Thanks to Devlopers for this awesome Browser,


i Have a problem With Rescue Hunter,

When i Download Mp3 Using Rescue Hunter original M4A File,   Size : 2.40 MB (2,526,795 bytes) bitrate : 126kbps

Audio
ID                                       : 1
Format                                   : AAC
Format/Info                              : Advanced Audio Codec
Format profile                           : LC
Codec ID                                 : mp4a-40-2
Duration                                 : 2 min 39 s
Bit rate                                 : 126 kb/s
Channel(s)                               : 2 channels
Channel positions                       : Front: L R
Sampling rate                            : 44.1 kHz
Frame rate                               : 43.066 FPS (1024 SPF)
Compression mode                         : Lossy
Stream size                              : 2.38 MiB (99%)
Encoded date                             : UTC 2018-01-05 06:25:55
Tagged date                              : UTC 2018-01-05 06:25:55



After Auto Convert into Mp3 :  Size : 621 KB (636,480 bytes) Bitrate : 32kbps

Audio
Format                                   : MPEG Audio
Format version                           : Version 2
Format profile                           : Layer 3
Format settings                          : Joint stereo / MS Stereo
Duration                                 : 2 min 39 s
Bit rate mode                            : Constant
Bit rate                                 : 32.0 kb/s
Channel(s)                               : 2 channels
Sampling rate                            : 16.0 kHz
Frame rate                               : 27.778 FPS (576 SPF)
Compression mode                         : Lossy
Stream size                              : 622 KiB (100%)
Writing library                          : LAME3.99.3






*/***** //****




So Please Convert File into original bitrate (126kbps) or Higher (192 kbps / 320kbps)



Rescue Hunter.jpg
You have to log in before you can reply Login | register

Points Rules

Dark room|Mobile|UCWeb Inc.    

16-1-18 19:14 GMT+8

Quick Reply To Top Return to the list